#TITLE:Trust;
#SUBTITLE:(Eurobeat Mix);
#ARTIST:浜崎あゆみ;
#TITLETRANSLIT:;
#SUBTITLETRANSLIT:;
#ARTISTTRANSLIT:Ayumi Hamasaki;
#CREDIT:;
#BANNER:trust.png;
#BACKGROUND:trust-bg.png;
#LYRICSPATH:;
#CDTITLE:cdtitle.png;
#MUSIC:Ayumi Hamasaki - Super Eurobeat pres. Ayu-ro mix - 08 - Trust (Eurobeat Mix).mp3;
#OFFSET:-9.600;
#SAMPLESTART:49.400;
#SAMPLELENGTH:12.000;
#SELECTABLE:YES;
#BPMS:0.000=150.000;
#STOPS:;
#BGCHANGES:;
// cache tags:
#FIRSTBEAT:4.750;
#LASTBEAT:820.250;
#SONGFILENAME:Songs/SS Ayu Style -Mini Pack-/Trust (Eurobeat Mix full)/Trust (Eurobeat Mix).sm;
#HASMUSIC:1;
#HASBANNER:1;
#MUSICLENGTH:344.607;
// end cache tags

//---------------dance-single - ----------------
#NOTES:
     dance-single:
     :
     Hard:
     10:
     0.834,0.982,0.261,0.247,1.000,1838.000,90.000,85.000,0.000,0.000:
0000
0000
0000
0000
,
0000
0000
0000
1000
0001
0100
0010
1000
0100
0010
0001
0100
0010
1000
0100
0010
,
0001
0100
0010
1000
0100
0010
0001
0100
0010
1000
0100
0010
0001
0100
0010
1000
,
0100
0010
0001
0100
0010
1000
0100
0010
0001
0100
0010
1000
0100
0010
0001
0100
,
0010
1000
0100
0010
0001
0100
0010
1000
0100
0010
0001
0100
0010
1000
0100
0010
,
0001
0100
0010
1000
0100
0010
0001
0100
0010
1000
0100
0010
0001
0100
0010
1000
,
0100
0010
0001
0100
0010
1000
0100
0010
0001
0100
0010
1000
0100
0010
0001
0100
,
0010
1000
0100
0010
0001
0100
0010
1000
0100
0010
0001
0100
0010
1000
0100
0010
,
0001
0100
0010
1000
0100
0010
0001
0100
0010
1000
0100
0010
0001
0100
0010
1000
,
0100
0010
0001
1000
0100
0010
0001
0100
0010
0001
0100
0010
1000
0100
0010
0001
,
0000
0000
1000
0100
1000
0100
0010
0001
0000
0100
0000
0100
0000
1000
0000
0100
,
0000
0100
0010
0001
1000
0100
0010
0000
0000
0000
0000
0000
0000
0000
0000
0000
,
0000
0000
0000
0100
1000
0100
0000
1000
0000
0001
0100
0000
0100
0010
0000
1000
,
0000
0100
0000
0010
0001
0010
0000
0100
0000
1000
0001
0000
0001
0100
0000
0010
,
0000
1000
0000
0100
1000
0100
1000
0010
0000
0100
0010
0100
0010
0000
0010
1000
,
0000
0100
1000
0100
0010
0001
1000
0100
0010
0001
1000
0100
0010
0001
1000
0100
,
0010
0001
1000
0010
0001
1000
0000
0000
0100
0010
1000
0000
1000
0001
0000
0100
,
0000
0001
0000
0100
0001
0100
0000
0010
0000
1000
0100
0000
0100
0010
0000
0001
,
0000
1000
0000
0100
1000
0100
0000
1000
0000
0001
0100
0000
0100
0010
0000
1000
,
0000
0100
0000
1000
0001
0100
0010
0100
0010
0100
0010
1000
0100
0010
1000
0100
,
0010
0001
0100
0010
0100
0000
0000
1001
0000
0100
0000
1010
0000
0001
0000
1100
,
0000
0010
0000
0110
0000
0001
0000
0100
0000
0010
0000
0110
0000
0000
0000
0000
,
0000
0001
0000
1001
0000
0100
0000
1100
0000
0001
0000
0010
1000
0010
0000
0001
,
0000
0010
0000
0100
0000
1000
0000
0001
0000
0100
0000
0010
0100
0010
0000
0100
,
0000
0101
0000
0100
0000
1000
0000
1001
0000
0010
0000
1010
0000
0001
0000
1100
,
0000
0010
0000
0001
0000
0100
0000
0100
0000
0001
0000
1001
0000
0000
0000
0000
,
0000
0100
0000
1100
0000
0001
0000
0011
0000
0100
0000
1100
0000
0001
0000
1001
,
0000
0001
0000
0101
0000
0010
0000
1010
0000
1001
0000
1100
0000
0010
0000
0010
,
0000
0100
0000
1000
0100
1000
0100
1000
0000
0001
0000
0101
0000
0010
0000
0100
,
0000
0001
0000
1000
0001
1000
0001
1000
0000
0100
0000
0010
0000
0001
0000
1000
,
0000
0010
0000
0100
0001
0100
0010
0100
0000
0001
0000
1000
0000
0100
0000
0101
,
0000
1000
0000
0010
0000
1000
0000
0100
0000
0010
0000
0101
0000
0000
0000
0000
,
0000
0000
0000
0000
0001
1000
0000
1100
0000
0011
0000
0001
0000
0000
0000
0000
,
0000
1000
0000
1001
0000
0100
0000
1000
0000
0001
0000
0100
0000
0000
0000
0000
,
0000
0000
0000
0001
0000
0100
0000
1100
0000
0010
0000
0011
0000
0000
0000
0001
,
0000
0100
0000
0010
0000
1000
0000
0001
0000
0000
0000
0100
1000
0100
1000
0001
,
0100
0010
0000
0000
0000
0000
0000
0000
0000
0000
0000
0000
0000
0000
0000
0000
,
0100
1000
0100
0001
0000
0000
0000
0100
0000
0010
1000
0000
0000
0000
0000
0001
,
1000
0001
1000
0100
0000
0000
0000
0010
0000
0001
0000
0100
0000
0000
0000
0000
,
0000
0000
0000
0010
1000
0000
0100
0000
0000
0010
0000
0001
0100
0000
0010
0000
,
0000
1000
0000
1100
0000
0001
0000
0100
0000
0010
1000
0000
0000
0000
0000
0100
,
1000
0100
1000
0200
0000
0000
0000
1300
0000
0001
0100
0000
0000
0000
0000
0010
,
1000
0010
1000
0200
0000
0000
0000
0310
0000
0001
0100
0000
0000
0000
0000
0000
,
0000
0001
1000
0001
0000
1000
0100
0000
0000
0010
0000
0011
0000
0100
0000
1000
,
0000
0001
0100
0010
0000
1000
0001
0000
0000
0000
0000
0000
0000
0000
0000
0100
,
1000
0100
1000
0002
0000
0000
0000
0103
0000
0010
1000
0000
0000
0000
0000
0001
,
0010
0001
0010
0200
0000
0000
0000
1300
0000
0001
0100
0000
0000
0000
0000
0000
,
0000
0010
1000
0010
1000
0000
0100
0000
0000
0010
0000
0001
0100
0000
0010
0000
,
0000
1000
0000
1001
0000
0100
0000
0010
0000
0001
0100
0000
0000
0000
0000
0010
,
1000
0010
1000
0200
0000
0000
0000
0310
0000
0001
0100
0000
0000
0000
0000
0001
,
1000
0001
1000
0200
0000
0000
0000
0310
0000
0001
1000
0000
0000
0000
0000
0000
,
0000
0010
1000
0010
1000
0000
0001
0000
0000
0101
0000
0010
0000
1000
0000
0100
,
0000
0010
0000
0001
0000
0100
0020
0000
0000
0000
0000
0000
0000
0000
0000
0000
,
0030
0000
0000
0001
1000
0001
0000
1000
0000
0100
0010
0000
0010
0001
0000
0010
,
0000
0001
0000
0100
0000
0100
0000
0010
0000
1000
0100
0000
0100
0010
0000
0001
,
0000
0100
0000
0001
0100
0001
0000
0100
0000
0010
1000
0100
0000
0100
0000
0010
,
0000
0001
0000
0010
0100
1000
0001
0010
0100
1000
0001
0010
0100
1000
0001
0010
,
0100
1000
0001
0100
0000
0010
0000
1000
0000
0001
0010
0000
0010
0100
0000
1000
,
0000
0001
0000
1000
0001
1000
0000
0001
0000
0100
0010
0000
0010
1000
0000
0001
,
0000
1000
0000
0100
1000
0100
0000
1000
0000
0001
0010
0000
0010
0100
0000
1000
,
0000
0001
0000
0100
0001
0100
0001
0100
0001
0100
0001
0100
0001
0100
0001
0100
,
0001
0100
0001
0100
0000
0001
0000
1010
0000
1100
0000
0100
0000
0001
0000
0001
,
0000
0100
0000
0100
0000
0010
0000
1000
0000
0100
0000
1100
0000
0000
0000
0000
,
0000
0001
0000
0101
0000
0001
0000
1001
0000
0001
0000
0011
0000
0100
0000
1100
,
0000
1000
0000
0101
0000
0001
0000
0011
0000
0010
0000
0001
0010
0001
0000
0010
,
0000
0000
0000
0001
0000
0001
0000
0101
0000
0001
0000
1100
0000
0100
0000
1001
,
0000
0010
0000
1010
0000
0001
0000
1000
0000
0100
0000
0010
0000
0000
0000
0000
,
0000
0001
0000
0101
0000
0010
0000
1010
0000
0001
0000
1001
0000
0100
0000
1100
,
0000
0001
0000
0011
0000
0100
0000
1100
0000
0001
0000
0101
0000
0010
0000
1000
,
0000
0100
0000
1000
0100
1000
0100
1000
0000
0002
0000
0100
0000
0103
0000
0010
,
0000
1000
0000
0001
0010
0001
0010
0200
0000
1000
0000
2000
0300
0001
0000
3001
,
0000
0100
0000
0001
0100
0001
0100
0010
0000
0100
0000
0001
0000
1000
0000
0100
,
0000
0100
0010
0001
0000
0010
0000
0100
0000
0000
1000
0002
0000
0000
0000
0003
,
0000
0100
0010
0100
0000
0010
0000
1000
0000
0100
0020
0000
0000
0000
0000
0030
,
0000
0001
0000
0100
0000
0010
0000
1000
0000
0000
0100
0020
0000
0000
0000
0030
,
0000
0000
0000
1001
0000
0000
1100
0000
0000
0001
0000
0100
0000
0000
0010
0000
,
0000
0010
0000
1000
0000
0100
0000
0020
0000
0000
0000
0130
1000
0001
0100
0010
,
1000
0100
0010
0002
0000
0000
0000
0000
0000
0000
0000
0000
0003
0000
0000
1000
,
0001
1000
0001
0200
0000
0000
0000
0310
0000
1000
0100
1000
0000
0000
0000
0001
,
0100
0001
0100
0020
0000
0000
0000
1030
0000
1000
0002
0000
0000
0000
0000
0000
,
0000
0103
0001
0100
0001
0000
0100
0000
0000
0010
0000
1000
0100
0000
0010
0000
,
0000
0011
0000
0100
0000
1000
0000
0010
0000
0100
0010
0000
0000
0000
0000
1000
,
0001
1000
0001
0100
0000
0000
0000
0010
0000
0100
0002
0000
0000
0000
0003
0100
,
0001
0100
0001
0200
0000
0000
0000
0310
0000
1000
0200
0000
0000
0000
0300
0000
,
0000
0010
0001
0010
0100
0000
1000
0000
0000
0001
0000
0101
0000
0010
0000
1000
,
0000
0100
0000
0010
0000
0001
0200
0000
0000
0000
0000
0300
0000
0000
0000
0100
,
0010
0100
0010
0200
0000
0000
0300
0001
0010
0100
0010
0000
0000
0000
0000
0001
,
0100
0001
0100
0020
0000
0000
0000
1030
0000
0100
0020
0000
0000
0000
0000
0000
,
0030
0000
0000
0100
0000
1000
0001
0000
0000
0100
0000
0010
1000
0000
0100
0000
,
0000
0010
0000
0011
0000
0100
0000
1000
0000
0001
0100
0000
0000
0000
0000
0010
,
1000
0010
1000
0200
0000
0000
0000
0310
0000
0001
0100
0000
0000
0000
0000
0001
,
1000
0001
1000
0200
0000
0000
0000
0310
0000
0001
0000
0100
0000
0000
0000
0000
,
0000
0010
1000
0010
1000
0000
0100
0000
0000
0010
0000
0011
0000
0100
0000
1000
,
0000
0001
0000
0100
0000
0010
2000
0000
0000
0000
0000
0000
0000
0000
0000
3000
,
0000
0000
0000
0001
0100
0001
0000
0100
0000
0010
0001
0000
0000
0100
0000
0100
,
0000
1000
0000
0001
0100
0001
0000
0100
0000
0100
1000
0000
0000
1000
0000
0001
,
0000
0100
0000
0001
0100
0001
0000
0100
0000
0010
1000
0000
0000
1000
0000
0100
,
0000
0010
0000
0001
0010
0100
1000
0001
0010
0100
1000
0001
0010
0100
1000
0001
,
0010
0100
1000
0001
0000
0100
0000
0010
0000
1000
0100
0000
0000
0010
0000
0001
,
0000
0100
0000
0010
0100
0010
0000
0100
0000
0001
1000
0000
0000
1000
0000
0100
,
0000
0100
0000
0010
0001
0010
0000
0100
0000
0010
1000
0000
0000
1000
0000
0100
,
0000
0010
0000
0001
0010
0100
1000
0001
0010
0100
1000
0001
0010
0100
1000
0001
,
0010
0100
1000
0000
0000
0000
0000
0002
0000
0000
0000
0203
0000
0000
0000
0320
,
0000
0000
0000
1030
0000
0100
0000
0100
0000
0010
0000
0002
0000
0000
0000
0103
,
0000
0100
0000
0010
0000
1000
0000
0100
0000
0100
0000
0010
0000
0001
0000
0100
,
0000
0010
0000
1000
0000
0100
0000
0100
0000
0010
0000
0002
0000
0000
0000
0103
,
0000
0000
0000
0101
0000
0010
0000
1000
0000
0100
1000
0100
0000
1000
0000
0002
,
0000
0100
0000
0103
0000
0010
0000
1000
0000
0100
0000
2200
0000
0000
0000
3300
,
0000
0001
0100
0001
0000
0100
0000
0010
0000
1000
0000
0100
1000
0100
0000
1000
,
0000
0001
0000
0100
0000
0101
0000
0010
0000
0001
0000
1000
0000
0100
0000
0010
,
0000
0000
0000
0100
0010
0100
0020
0000
0000
0000
0000
0030
0000
0000
0000
0100
,
0000
0010
0000
0001
0100
0001
0100
0002
0000
0000
0000
1003
0100
1000
0100
2000
,
0000
0000
0000
3001
0100
0001
0100
0002
0000
0000
0000
0000
0000
0013
0000
0011
,
0000
0100
0000
1000
0000
0001
0000
0100
0000
0010
0100
2000
0000
0000
0000
0000
,
3000
0000
0000
0001
0000
0010
0000
0100
0000
0000
1000
0002
0000
0000
0000
0000
,
0000
0100
0000
0103
0000
0010
0000
1000
0000
0100
0000
0020
0000
0000
0030
0000
,
0000
0000
0000
1001
0000
0000
0100
0000
0000
0001
0000
0100
0000
0000
0100
0000
,
0000
0010
0000
1000
0000
0100
0000
0020
0000
0000
0000
0030
0001
0100
0001
0100
,
0001
0100
0010
0100
0002
0000
0000
0000
0000
0000
0000
0000
0003
0000
0000
0000
,
0100
1000
0100
1000
0200
0000
0000
1300
0000
0001
0101
0000
0000
0000
0000
0010
,
1000
0100
0010
0001
0200
0000
0000
0010
0000
0301
0100
0000
0000
0000
0000
0000
,
0010
0001
1000
0001
1000
0000
0100
0000
0000
0010
0000
0001
0100
0000
0010
0000
,
0000
1001
0000
1100
0000
0010
0000
0001
0000
0010
1000
0100
0000
0000
0000
0001
,
0100
0001
0100
0020
0000
0000
0000
1030
0000
0001
1000
0000
0000
0000
0000
0100
,
0010
0100
0010
0002
0000
0000
0000
1003
0000
0001
0100
0001
0000
0000
0000
0000
,
0000
0010
1000
0010
1000
0000
0001
0000
0000
0010
0000
0001
0010
0100
0000
1000
,
0000
0001
0100
0010
0000
1000
0200
0000
0000
0000
0000
0320
0000
0000
0000
0031
,
0010
0001
0010
0200
0000
0000
0000
1300
0000
0001
0200
0000
0000
0000
0000
0310
,
1000
0010
1000
0002
0000
0000
0000
0103
0000
0010
2000
0000
0000
0000
0000
0000
,
3000
0001
0010
0001
0010
0000
0200
0000
0000
1300
0000
0010
0100
0001
0010
0000
,
0000
1000
0000
1001
0000
0010
0000
0100
0010
0100
0020
0000
0000
0030
0000
0001
,
1000
0001
1000
0200
0000
0000
0000
0300
0010
0100
0010
0200
0000
0000
0000
0300
,
1000
0010
1000
0010
0002
0000
0000
0103
0000
0010
0000
2000
0000
0000
0000
3000
,
0000
0001
0010
0001
0010
0000
0100
0000
0000
1000
0000
1001
0000
0100
0000
0010
,
0000
0010
1000
0001
0000
0100
0010
2000
0000
0000
0000
0000
0000
0000
0000
3000
,
0000
0000
0001
0010
0001
0010
0001
0010
0001
0100
0001
1000
0001
1000
0001
1000
,
0100
1000
0001
0010
0100
1000
0001
0010
0100
1000
0001
0010
0100
0000
1000
0100
,
0010
0001
0100
0010
1000
0100
0010
0001
0100
0010
1000
0100
0010
0001
0100
0010
,
1000
0100
0010
0001
0100
0010
1000
0100
0010
0001
0100
0010
1000
0100
0010
0001
,
0100
0010
1000
0100
0010
0001
0100
0010
1000
0100
0010
0001
0100
0010
1000
0100
,
0010
0001
0100
0010
1000
0100
0010
0001
0100
0010
1000
0100
0010
0001
0100
0010
,
1000
0100
0010
0001
0100
0010
1000
0100
0010
0001
0100
0010
1000
0100
0010
0001
,
0100
0010
1000
0100
0010
0001
0100
0010
1000
0100
0010
0001
0100
0010
1000
0100
,
0010
0001
0100
0010
1000
0100
0010
0001
0100
0010
1000
0100
0010
0001
0100
0010
,
1000
0100
0010
0001
0100
0010
1000
0100
0010
0001
0100
0010
1000
0100
0010
0001
,
0100
0010
1000
0100
0010
0001
0100
0010
1000
0100
0010
0001
0100
0010
1000
0100
,
0010
0001
0100
0010
1000
0100
0010
0001
0100
0010
1000
0100
0010
0001
0100
0010
,
1000
0100
0010
0002
0000
0000
0000
0000
0000
0000
0000
0000
0000
0000
0000
0000
,
0000
0000
0000
1003
0100
0010
0001
0100
0010
0001
0010
0100
1000
0010
0001
1000
,
0010
0000
0000
0001
0100
0010
0000
1000
0010
0100
0001
0010
0001
0100
0000
0010
,
0000
0010
0000
0010
0001
1000
0020
0000
0000
0000
0000
0000
0000
0000
0000
0030
,
0000
0000
0000
0001
1000
0001
0000
1000
0000
0100
0010
0000
0000
0010
0000
0001
,
0000
0100
0000
0001
0100
0001
0000
0100
0000
0010
1000
0000
0000
1000
0000
0001
,
0000
0010
0000
0100
1000
0100
0000
1000
0000
0001
0100
0000
0000
0100
0000
0010
,
0000
1000
0000
0100
0010
0001
1000
0100
0010
0001
1000
0100
0010
0001
1000
0100
,
0010
0001
1000
0100
0000
0100
0000
0010
0001
0010
0100
0010
0000
0000
0000
1000
,
0000
0001
0000
0010
1000
0010
0000
0100
0000
1000
0001
0000
0000
0001
0000
0100
,
0000
0010
0000
1000
0001
1000
0000
0100
0000
0010
0100
0000
0000
0100
0000
1000
,
0000
0001
0000
0001
0100
0001
0100
0001
0100
0001
0100
0001
0100
0001
0100
0001
,
0100
0001
0100
0010
1000
0000
0001
0000
0020
0000
0000
0100
0000
0000
0030
1100
,
0000
0000
0000
0101
0000
0000
0000
0010
0000
1000
0000
0100
0000
0000
0000
0000
,
0000
0001
0000
1001
0000
0001
0000
0011
0000
0001
0000
1001
0000
0001
0000
0101
,
0000
0001
0000
1001
0000
0001
0000
0011
0000
0000
0000
2002
0000
0000
0000
3003
,
0000
0000
0000
2200
3300
0000
0000
0101
0000
0000
0000
1010
0000
0000
0000
0002
,
0000
0000
0000
0013
0000
0000
0000
0100
0000
1000
0000
0001
0000
0000
0000
0000
,
0000
1000
0000
1100
0000
0000
0000
2020
3030
0000
0000
1010
0000
0000
0000
1001
,
0000
0000
0000
1100
0000
0000
0000
0101
0000
0000
0000
2020
0000
0000
3000
0030
,
0000
0000
0000
0000
0001
0010
0001
0010
0002
0000
0000
0000
0000
1003
0000
0001
,
0000
1000
0000
0000
0100
1000
0100
1000
0200
0000
0300
0010
0001
0100
0001
0200
,
0000
0000
0000
0301
0010
0001
0010
0002
0000
0000
0000
0000
0000
1003
0000
1001
,
0000
0100
0000
1000
0000
0001
0000
0100
0010
0100
0001
0000
0000
0000
0000
0000
,
0000
0001
0000
0010
0000
0100
0000
1000
0000
0001
0100
0000
0000
0000
0000
0000
,
0000
0010
0000
1000
0000
0100
0000
0010
0000
0001
0000
1000
0000
0000
0000
0000
,
0000
0000
0000
1001
0000
0000
0000
1100
0000
0000
0002
0100
0000
0000
0003
0100
,
0000
0010
0000
1000
0000
0100
1000
0020
0000
0000
0000
0031
0010
0100
1000
0001
,
0010
0100
1000
0002
0000
0000
0000
0000
0000
0000
0000
0000
0000
0000
0000
0103
,
0001
0100
0001
0100
0000
0000
0000
0000
0010
0000
1000
0100
0000
0000
0000
0000
,
0010
0001
0010
0001
0010
0000
0000
0000
0100
0000
1000
0001
0000
0000
0000
0000
,
0000
0010
0100
0001
0100
0001
0000
0100
0000
0000
0010
0000
1000
0100
0010
0000
,
0000
0001
1000
0010
0000
0100
0000
0010
0000
0000
0100
0010
0000
0000
0000
0000
,
0010
1000
0010
1000
0010
0000
0000
0000
0100
0000
0001
0010
0000
0000
0000
0000
,
0001
1000
0001
1000
0100
0000
0000
0000
0010
0000
0001
0100
0000
0000
0000
0000
,
0000
0001
0000
1000
0001
1000
0000
0100
0000
0010
0000
0001
0000
0100
0000
0000
,
0010
0000
1000
0000
0100
0000
0010
0001
0000
0000
0000
0000
0000
0000
0000
0000
,
1000
0001
1000
0001
1000
0000
0000
0000
0100
0000
0010
0001
0000
0000
0000
0000
,
0100
0001
0100
0001
0100
0000
0000
0000
0010
0000
1000
0100
0000
0000
0000
0000
,
0000
0000
0010
0001
0010
0001
0000
0010
0000
0100
0000
0000
1000
0001
0000
0100
,
0000
0010
0000
1000
0001
0000
0100
0000
0010
0000
0001
0100
0000
0000
0000
0000
,
0010
1000
0010
1000
0020
0000
0000
0030
0100
0000
0001
0020
0000
0000
0000
0030
,
0001
0010
0001
0010
0002
0000
0000
0003
1000
0000
0001
0100
0000
0000
0000
0000
,
0000
0000
0001
1000
0001
1000
0000
0001
0000
0000
0010
0000
0100
0000
0010
1000
,
0000
0000
1000
0100
0001
0000
0100
0020
0000
0000
0000
0000
0000
0000
0000
0000
,
0030
0000
0000
0000
0001
1000
0001
0000
1000
0000
0100
0010
0000
0000
0001
0000
,
0100
0000
0010
0000
1000
0010
1000
0000
0100
0000
0010
0001
0000
0000
0001
0000
,
0100
0000
0010
0000
1000
0010
1000
0000
0100
0000
0010
0001
0000
0000
0001
0000
,
0100
0000
0010
0000
1000
0100
0010
0001
1000
0100
0010
0001
1000
0100
0010
0001
,
1000
0100
0010
0001
1000
0000
0100
0000
0010
0000
0001
0100
0000
0000
0100
0000
,
0010
0000
1000
0000
0100
1000
0100
0000
0010
0000
0001
0100
0000
0000
0100
0000
,
0010
0000
1000
0000
0010
1000
0010
0000
1000
0000
0001
0100
0000
0100
0001
0100
,
0001
0000
0001
1000
0001
1000
0001
1000
0001
1000
0001
1000
0001
1000
0001
1000
,
0001
1000
0001
1000
0001
1000
0000
0000
0001
0000
0100
0010
0000
1000
0000
0000
,
0100
0000
0010
0000
0001
0100
0001
0000
0100
0000
0010
1000
0000
0010
0001
0010
,
0000
0001
0000
0000
0001
0100
0001
0000
0100
0000
1000
0010
0000
0000
0010
0000
,
0100
0000
0001
0000
0010
0100
1000
0001
0010
0100
1000
0001
0010
0100
1000
0001
,
0010
0100
1000
0001
0010
0000
0100
0000
1000
0000
0001
0100
0000
0000
0100
0010
,
0000
0100
0000
0000
0000
0000
0000
0000
0000
0000
0000
0000
0000
0000
0000
0000
;

//---------------dance-single - ----------------
#NOTES:
     dance-single:
     :
     Easy:
     1:
     0.000,0.000,0.000,0.000,0.000,0.000,0.000,0.000,0.000,0.000:
0000
0000
0000
0000
;

//---------------dance-single - ----------------
#NOTES:
     dance-single:
     :
     Medium:
     1:
     0.000,0.000,0.000,0.000,0.000,0.000,0.000,0.000,0.000,0.000:
0000
0000
0000
0000
;

//---------------dance-single - ----------------
#NOTES:
     dance-single:
     :
     Beginner:
     1:
     0.000,0.000,0.000,0.000,0.000,0.000,0.000,0.000,0.000,0.000:
0000
0000
0000
0000
;
